<?xml version="1.0" standalone="no"?>
<!DOCTYPE svg PUBLIC "-//W3C//DTD SVG 1.1//EN" "http://www.w3.org/Graphics/SVG/1.1/DTD/svg11.dtd" >
<svg xmlns="http://www.w3.org/2000/svg">
<metadata>Generated by IcoMoon</metadata>
<defs>
<font id="icomoon" horiz-adv-x="1024">
<font-face units-per-em="1024" ascent="960" descent="-64" />
<missing-glyph horiz-adv-x="1024" />
<glyph unicode="&#x20;" horiz-adv-x="512" d="" />
<glyph unicode="&#xe60f;" glyph-name="instagram" d="M511.839 959.677c-139.008 0-156.438-0.589-211.031-3.080-54.479-2.485-91.687-11.138-124.243-23.792-33.658-13.078-62.202-30.58-90.659-59.034-28.455-28.457-45.956-57.001-59.034-90.659-12.654-32.557-21.307-69.764-23.792-124.243-2.491-54.593-3.080-72.023-3.080-211.031 0-139.006 0.589-156.436 3.080-211.029 2.485-54.479 11.138-91.687 23.792-124.243 13.078-33.658 30.58-62.202 59.034-90.659 28.457-28.455 57.001-45.956 90.659-59.036 32.557-12.652 69.764-21.305 124.243-23.79 54.593-2.491 72.023-3.080 211.031-3.080 139.006 0 156.436 0.589 211.029 3.080 54.479 2.485 91.687 11.138 124.243 23.79 33.658 13.080 62.202 30.582 90.659 59.036 28.455 28.457 45.956 57.001 59.036 90.659 12.652 32.557 21.305 69.764 23.79 124.243 2.491 54.593 3.080 72.023 3.080 211.029 0 139.008-0.589 156.438-3.080 211.031-2.485 54.479-11.138 91.687-23.79 124.243-13.080 33.658-30.582 62.202-59.036 90.659-28.457 28.455-57.001 45.956-90.659 59.034-32.557 12.654-69.764 21.307-124.243 23.792-54.593 2.491-72.023 3.080-211.029 3.080v0zM511.839 867.454c136.665 0 152.854-0.522 206.826-2.985 49.904-2.276 77.005-10.614 95.041-17.623 23.891-9.285 40.942-20.376 58.852-38.288 17.912-17.91 29.003-34.96 38.288-58.852 7.010-18.036 15.348-45.137 17.623-95.041 2.462-53.971 2.985-70.16 2.985-206.828 0-136.665-0.522-152.854-2.985-206.826-2.276-49.904-10.614-77.005-17.623-95.041-9.285-23.891-20.376-40.942-38.288-58.852-17.91-17.912-34.96-29.003-58.852-38.288-18.036-7.010-45.137-15.348-95.041-17.623-53.963-2.462-70.15-2.985-206.826-2.985-136.678 0-152.862 0.522-206.828 2.985-49.904 2.276-77.005 10.614-95.041 17.623-23.891 9.285-40.942 20.376-58.852 38.288-17.91 17.91-29.003 34.96-38.288 58.852-7.010 18.036-15.348 45.137-17.623 95.041-2.462 53.971-2.985 70.16-2.985 206.826s0.522 152.856 2.985 206.828c2.276 49.904 10.614 77.005 17.623 95.041 9.285 23.891 20.376 40.942 38.288 58.852 17.91 17.912 34.96 29.003 58.852 38.288 18.036 7.010 45.137 15.348 95.041 17.623 53.971 2.462 70.16 2.985 206.828 2.985v0zM511.839 277.226c-94.228 0-170.614 76.386-170.614 170.612 0 94.228 76.386 170.614 170.614 170.614 94.226 0 170.612-76.386 170.612-170.614 0-94.226-76.386-170.612-170.612-170.612v0zM511.839 710.674c-145.162 0-262.837-117.675-262.837-262.837 0-145.16 117.675-262.835 262.837-262.835 145.16 0 262.835 117.675 262.835 262.835 0 145.162-117.675 262.837-262.835 262.837v0zM846.48 721.059c0-33.922-27.5-61.42-61.422-61.42-33.92 0-61.42 27.498-61.42 61.42s27.5 61.422 61.42 61.422c33.922 0 61.422-27.5 61.422-61.422z" />
<glyph unicode="&#xe610;" glyph-name="linkedIn" d="M15.915 617.387h212.48v-682.368h-212.48v682.368zM122.24 956.629c67.925 0 123.008-55.125 123.008-122.965s-55.083-122.965-123.008-122.965c-68.139 0-123.093 55.125-123.093 122.965s54.955 122.965 123.093 122.965zM361.515 617.387h203.435v-93.227h2.987c28.203 53.675 97.621 110.208 200.789 110.208 214.656 0 254.464-141.269 254.464-325.12v-374.229h-212.096v331.733c0 79.189-1.536 180.992-110.336 180.992-110.421 0-127.189-86.187-127.189-175.104v-337.664h-212.053v682.411z" />
<glyph unicode="&#xe611;" glyph-name="pinterest" d="M511.573 960c-281.6 0-509.952-226.859-509.952-506.837 0-207.616 125.525-385.835 305.237-464.213-1.451 35.456-0.256 77.867 8.832 116.395 9.813 41.173 65.621 276.181 65.621 276.181s-16.341 32.341-16.341 80.171c0 75.093 43.904 131.2 98.432 131.2 46.293 0 68.736-34.603 68.736-76.075 0-46.293-29.824-115.669-45.013-179.755-12.8-53.803 27.136-97.707 80.384-97.707 96.683 0 161.664 123.307 161.664 269.44 0 111.104-75.221 194.261-212.096 194.261-154.667 0-251.051-114.645-251.051-242.688 0-44.288 13.141-75.307 33.621-99.456 9.472-11.093 10.795-15.531 7.339-28.203-2.389-9.387-8.021-31.744-10.368-40.704-3.456-12.885-13.824-17.493-25.472-12.672-71.253 28.843-104.405 106.411-104.405 193.621 0 143.915 122.027 316.587 364.416 316.587 194.645 0 322.859-140.075 322.859-290.389 0-198.869-111.317-347.349-275.2-347.349-55.125 0-106.88 29.611-124.544 63.104 0 0-29.653-116.779-35.883-139.264-10.795-38.997-32-78.123-51.371-108.587 45.867-13.355 94.293-20.736 144.555-20.736 281.515 0 509.867 226.901 509.867 506.837-0.043 279.979-228.352 506.837-509.867 506.837z" />
<glyph unicode="&#xe612;" glyph-name="vimeo" d="M48.896 589.653c18.688 12.203 35.84 23.509 53.077 34.645 28.117 18.261 38.485 20.352 66.219-11.392 5.035-5.803 9.643-12.416 12.757-19.413 11.264-25.387 24.448-50.389 32.128-76.971 30.379-105.259 58.923-211.072 88.192-316.629 16.299-58.837 40.405-113.707 83.499-158.507 29.44-30.549 65.451-39.723 106.667-31.445 43.605 8.619 81.451 29.397 116.907 55.040 62.891 45.397 115.371 101.632 164.395 161.152 70.741 86.016 137.344 175.104 189.312 274.048 33.109 63.104 61.141 128.299 59.52 201.6-0.555 26.325-2.56 53.205-8.533 78.763-15.104 63.531-54.571 99.712-118.827 106.411-86.656 9.045-164.395-11.819-225.835-78.037-37.077-40.064-60.843-87.637-78.507-138.624-2.304-6.528-3.968-13.312-5.291-17.92 25.045 4.437 49.067 10.923 73.429 12.373 45.099 2.773 70.272-21.76 69.12-66.688-0.512-19.285-3.499-39.467-9.899-57.557-21.504-60.459-56.107-113.877-94.421-164.907-10.069-13.397-22.016-25.813-34.56-37.035-19.755-17.621-36.395-16.299-50.219 6.144-11.648 18.816-21.163 39.552-27.989 60.629-30.123 93.013-41.984 189.824-57.899 285.781-7.040 41.984-13.739 83.925-34.304 122.069-32.811 60.928-93.867 81.749-156.117 51.883-18.091-8.747-36.096-18.816-51.499-31.403-51.883-42.88-102.613-87.040-153.6-130.944-18.944-16.341-37.419-33.195-56.619-50.261 16.768-21.504 32.427-41.643 48.896-62.805z" />
<glyph unicode="&#xe900;" glyph-name="Plus" horiz-adv-x="1067" d="M512 960h42.667v-1024h-42.667v1024zM1045.333 469.333v-42.667h-1024v42.667h1024z" />
<glyph unicode="&#xe901;" glyph-name="Arrow_D" d="M0 629.592l85.186 85.186 511.113-511.113-85.186-85.186-511.113 511.113zM425.928 203.665l511.113 511.113 85.186-85.186-511.113-511.113-85.186 85.186z" />
<glyph unicode="&#xe902;" glyph-name="Arrow_L" d="M691.819 960l85.186-85.186-511.113-511.113-85.186 85.186 511.113 511.113zM265.891 534.072l511.113-511.113-85.186-85.186-511.113 511.113 85.186 85.186z" />
<glyph unicode="&#xe903;" glyph-name="youtube" d="M836.907 824.149c-153.771 10.496-496.256 10.453-649.813 0-166.272-11.349-185.856-111.787-187.093-376.149 1.237-263.893 20.651-364.757 187.093-376.149 153.6-10.453 496.043-10.496 649.813 0 166.272 11.349 185.856 111.787 187.093 376.149-1.237 263.893-20.651 364.757-187.093 376.149zM384 277.333v341.333l341.333-170.368-341.333-170.965z" />
<glyph unicode="&#xe904;" glyph-name="Arrow_R" d="M330.408-62.227l-85.186 85.186 511.113 511.113 85.186-85.186-511.113-511.113zM756.335 363.701l-511.113 511.113 85.186 85.186 511.113-511.113-85.186-85.186z" />
<glyph unicode="&#xe905;" glyph-name="Arrow_U" d="M1022.227 268.181l-85.186-85.186-511.113 511.113 85.186 85.186 511.113-511.113zM596.299 694.109l-511.113-511.113-85.186 85.186 511.113 511.113 85.186-85.186z" />
<glyph unicode="&#xe906;" glyph-name="Tick" horiz-adv-x="1252" d="M393.147-63.961l-393.147 393.069 164.841 164.763 228.306-228.306 694.397 694.397 164.841-164.763z" />
<glyph unicode="&#xe907;" glyph-name="MenuExit" d="M41.35 49.757l868.893 868.893 72.408-72.408-868.893-868.893-72.408 72.408zM113.757 918.65l868.893-868.893-72.408-72.408-868.893 868.893 72.408 72.408z" />
<glyph unicode="&#xe908;" glyph-name="mapPin2" d="M870.4 601.6c0-332.8-358.4-665.6-358.4-665.6s-358.4 332.8-358.4 665.6c0 197.12 161.28 358.4 358.4 358.4s358.4-161.28 358.4-358.4z" />
<glyph unicode="&#xe909;" glyph-name="IBT_Icons_AD" d="M878.72 451.2c-79.967 126.464-218.651 209.485-376.801 210.559l-14.559 0.001-22.4 106.24-34.88-7.36 21.76-101.12c-137.576-16.493-254.088-94.438-322.757-205.165 17.501-34.848 38.722-63.308 63.067-88.753l-18.39 84.958c7.615 10.979 15.393 20.585 23.813 29.584l31.867-148.944c12.767-10.848 26.858-21.378 41.589-31.011l-44.149 211.811c8.96 8.32 19.2 17.28 30.4 25.92l56-262.080c12.48-6.4 25.92-12.16 39.68-17.6l-64.96 302.72c8.868 5.947 19.338 12.112 30.156 17.695l72.564-331.935c12.16-2.88 24.96-5.44 37.76-7.68l-26.88 128c12.429-15.221 27.929-27.443 45.605-35.821l21.275-96.339q12.48 0 25.92 0h10.24l-16.64 85.12c2.392-0.156 5.185-0.245 8-0.245s5.608 0.089 8.378 0.265c2.591-0.252 6.051-0.385 9.542-0.385s6.951 0.133 10.375 0.394l40.505-192.028 34.56 7.36-23.36 106.56c127.564 28.455 233.812 104.195 301.591 207.448zM379.52 483.2l-24 112c11.2 4.16 23.040 8 35.2 11.52l15.68-73.28c-12.398-14.173-21.71-31.373-26.686-50.329zM437.12 559.36l-11.84 55.040c9.858 2.062 21.901 3.764 34.149 4.733l10.651-45.373c-12.545-3.742-23.488-8.977-33.395-15.635zM567.040 288l-9.28 42.56c45.755 20.189 77.113 65.158 77.113 117.45 0 70.692-57.308 128-128 128-0.56 0-1.119-0.004-1.678-0.011l-8.875 42.881h5.76c8.32 0 16.64 0 24.64 0 82.867-14.222 145.131-85.532 145.131-171.385 0-71.037-42.628-132.117-103.699-159.057zM657.6 308.8c32.605 36.902 52.51 85.689 52.51 139.125 0 55.943-21.817 106.79-57.406 144.498 74.106-29.496 135.101-78.436 178.458-140.593-43.35-62.913-102.268-111.354-170.888-141.964z" />
<glyph unicode="&#xe90a;" glyph-name="IBT_Icons_ALS" d="M192 149.76v111.36l170.24 169.92 112-112-169.28-169.28h-112.96zM570.88 562.56c-19.669 18.817-46.394 30.4-75.824 30.4-0.006 0-0.011 0-0.017 0-28.817-0.061-54.914-11.656-73.931-30.412-6.71-7.452-12.841-15.722-18.145-24.545l-27.283 14.317c6.594 12.226 14.361 22.747 23.392 32.033 24.656 25.056 58.977 40.601 96.928 40.601s72.272-15.545 96.942-40.615c24.096-24.946 39.269-58.613 40.333-95.813-0.998-37.622-16.186-71.308-40.351-96.242l-22.044 21.797c19.376 18.889 31.536 45.1 31.999 74.154-0.893 29.147-12.949 55.229-32.001 74.329zM682.24 370.56c-55.68-89.28-22.080-242.56-183.68-242.56-0.188-0.001-0.409-0.001-0.631-0.001-41.26 0-78.607 16.757-105.605 43.838-5.337 5.119-10.261 10.551-14.789 16.308l38.466 35.856c4.083-6.381 8.515-11.931 13.458-16.978 18.571-17.138 43.329-27.854 70.581-28.46 111.161-0.002 84.281 127.998 139.961 218.878 16.649 25.185 26.647 56.042 26.88 89.219 0.016 0.925 0.026 1.944 0.026 2.966 0 92.43-74.93 167.36-167.36 167.36-1.021 0-2.041-0.009-3.058-0.027-0.366 0.008-0.978 0.011-1.592 0.011-46.482 0-88.596-18.699-119.231-48.985-25.632-26.811-43.242-61.518-48.827-100.118l-45.557 27.814c9.085 42.477 29.894 79.121 58.844 107.485 39.963 39.182 94.548 63.508 154.814 64.034 61.088-0.458 116.308-24.773 156.967-64.062 39.17-40.407 63.494-95.529 63.934-156.331 0.003-0.443 0.004-0.865 0.004-1.288 0-42.683-12.529-82.44-34.11-115.794zM811.84 655.040l-84.16-82.56c-10.437 36.187-29.792 67.034-55.564 91.093-12.402 13.503-26.277 25.141-41.523 34.813l68.287 69.614h112.96z" />
<glyph unicode="&#xe90b;" glyph-name="IBT_Icons_B" d="M384 128c-35.346 0-64 28.654-64 64s28.654 64 64 64c35.346 0 64-28.654 64-64s-28.654-64-64-64zM384 384c-35.346 0-64 28.654-64 64s28.654 64 64 64c35.346 0 64-28.654 64-64s-28.654-64-64-64zM384 640c-35.346 0-64 28.654-64 64s28.654 64 64 64c35.346 0 64-28.654 64-64s-28.654-64-64-64zM640 128c-35.346 0-64 28.654-64 64s28.654 64 64 64c35.346 0 64-28.654 64-64s-28.654-64-64-64zM640 384c-35.346 0-64 28.654-64 64s28.654 64 64 64c35.346 0 64-28.654 64-64s-28.654-64-64-64zM640 640c-35.346 0-64 28.654-64 64s28.654 64 64 64c35.346 0 64-28.654 64-64s-28.654-64-64-64z" />
<glyph unicode="&#xe90c;" glyph-name="IBT_Icons_CC" d="M332.48 248.96c-0.962-0.018-2.097-0.029-3.235-0.029-100.383 0-181.76 81.377-181.76 181.76 0 1.248 0.013 2.493 0.038 3.735l-0.003-0.186c-0.012 0.78-0.019 1.701-0.019 2.623 0 101.62 82.38 184 184 184 1.694 0 3.384-0.023 5.067-0.068 2.229 0.13 5.131 0.201 8.050 0.201 59.363 0 111.849-29.443 143.651-74.522l-74.51-58.474c-17.352 25.204-45.927 41.598-78.351 41.92-47.721-1.416-85.827-40.399-85.827-88.283 0-2.717 0.123-5.405 0.363-8.059l-0.025 0.342c-0.197-2.219-0.31-4.8-0.31-7.407 0-47.938 38.055-86.988 85.603-88.589 34.185 0.496 63.88 18.635 80.549 45.662l75.118-53.026c-32.857-49.527-88.375-81.735-151.417-81.735-2.456 0-4.9 0.049-7.333 0.146zM706.24 248.96c-0.962-0.018-2.097-0.029-3.235-0.029-100.383 0-181.76 81.377-181.76 181.76 0 1.248 0.013 2.493 0.038 3.735l-0.003-0.186c-0.012 0.78-0.019 1.701-0.019 2.623 0 101.62 82.38 184 184 184 1.694 0 3.384-0.023 5.067-0.068 2.888 0.205 6.551 0.319 10.242 0.319 59.001 0 111.208-29.085 143.067-73.699l-74.517-58.454c-17.352 25.204-45.927 41.598-78.351 41.92-47.721-1.416-85.827-40.399-85.827-88.283 0-2.717 0.123-5.405 0.363-8.059l-0.025 0.342c-0.197-2.219-0.31-4.8-0.31-7.407 0-47.938 38.055-86.988 85.603-88.589 33.526 0.736 62.623 18.401 79.274 44.722l74.153-54.006c-32.935-48.979-88.145-80.774-150.782-80.774-2.454 0-4.897 0.049-7.327 0.146z" />
<glyph unicode="&#xe90d;" glyph-name="IBT_Icons_Facebook" d="M538.88 160v248h85.12l12.8 96h-97.92v62.72c0 27.84 8 47.040 48.96 47.040h52.16v86.4c-22.157 2.448-47.848 3.844-73.866 3.844-0.807 0-1.613-0.001-2.419-0.004-3.091 0.312-6.827 0.49-10.605 0.49-65.037 0-117.76-52.723-117.76-117.76 0-3.778 0.178-7.514 0.526-11.201l-0.036-70.889h-83.84v-96h85.12v-248.64z" />
<glyph unicode="&#xe90e;" glyph-name="IBT_Icons_Flash" d="M450.24 96l-3.2 10.24v0.64l-83.2 253.44h108.48l43.2 125.76h-195.52l108.16 313.92h121.92l-74.56-220.48-12.8-38.4h195.52l-62.72-180.8h121.6l-266.88-264.32z" />
<glyph unicode="&#xe90f;" glyph-name="IBT_Icons_Google" d="M395.2 476.8v-80.64h109.76c-9.327-46.622-49.931-81.259-98.624-81.259-3.923 0-7.794 0.225-11.6 0.662-66.34-0.043-120.495 54.112-120.495 120.917s54.156 120.96 120.96 120.96c0.521 0.008 1.136 0.013 1.753 0.013 29.787 0 56.934-11.305 77.383-29.859 16.544 16.726 15.264 19.286 57.824 59.606-35.988 32.748-84.033 52.8-136.762 52.8-112.401 0-203.52-91.119-203.52-203.52s91.119-203.52 203.52-203.52c0.043 0 0.086 0 0.129 0 167.673 0 208.953 146.24 195.193 243.84zM761.6 472.64v70.72h-50.24v-70.72h-72.64v-50.24h72.64v-72.64h50.24v72.64h70.4v50.24h-70.4z" />
<glyph unicode="&#xe910;" glyph-name="IBT_Icons_Link" d="M588.48 256l-37.76-38.4c-33.967-32.808-80.281-53.024-131.317-53.024-104.448 0-189.12 84.672-189.12 189.12 0 50.001 19.404 95.47 51.093 129.288l38.624 38.296c5.817 5.938 13.919 9.62 22.88 9.62 17.684 0 32.020-14.336 32.020-32.020 0-8.723-3.488-16.631-9.145-22.405l-37.435-38.395c-20.234-22.149-32.628-51.759-32.628-84.263 0-69.102 56.018-125.12 125.12-125.12 33.062 0 63.129 12.823 85.498 33.768l37.69 38.335c5.88 8.098 15.317 13.303 25.97 13.303 17.673 0 32-14.327 32-32 0-10.733-5.284-20.232-13.393-26.037zM608 500.16l-146.56-148.16c-5.261-3.946-11.899-6.319-19.091-6.319-17.673 0-32 14.327-32 32 0 6.789 2.114 13.084 5.72 18.263l146.491 148.055c5.8 5.846 13.837 9.466 22.72 9.466s16.92-3.619 22.718-9.463c5.382-5.714 8.689-13.432 8.689-21.922s-3.306-16.208-8.702-21.936zM742.72 413.12l-38.72-38.4c-5.184-3.77-11.676-6.030-18.697-6.030-17.673 0-32 14.327-32 32 0 6.94 2.209 13.364 5.963 18.607l37.694 38.623c20.234 22.149 32.628 51.759 32.628 84.263 0 69.102-56.018 125.12-125.12 125.12-33.062 0-63.129-12.823-85.498-33.768l-38.97-38.335c-5.146-3.688-11.57-5.897-18.51-5.897-17.673 0-32 14.327-32 32 0 7.021 2.261 13.513 6.094 18.789l37.696 38.308c33.967 32.808 80.281 53.024 131.317 53.024 104.448 0 189.12-84.672 189.12-189.12 0-50.001-19.404-95.47-51.093-129.288z" />
<glyph unicode="&#xe911;" glyph-name="IBT_Icons_SLI" d="M484.16 593.92c-16 10.88-17.6 21.44-32 24.96s-40.32 0-52.48 4.16c-27.95-6.041-52.643-14.977-75.661-26.727-23.219-12.313 33.741 24.807 50.061 44.007 42.88 12.8 32 13.44 51.52 18.24 12.215 1.549 23.055 3.791 33.579 6.784 11.861 3.136 23.061 21.376 10.261 31.616-7.68 6.080-32-2.88-54.72-3.2-24.477-6.897-45.72-15.622-65.672-26.428-19.463-12.19-37.638-25.272-54.823-39.508-19.025-13.744 22.895 37.136 40.495 58.576 5.12 7.36 7.36 8.64 14.080 17.28 9.92 13.76-3.2 34.56-9.6 32s-13.12-19.2-22.72-24.64c-3.52-1.92-15.040-19.2-25.92-32-7.487-7.139-14.491-14.548-21.097-22.307-9.207-12.845-18.118-27.178-26.142-42.059-7.121-9.205-13.11-16.922-18.702-24.937-32.619-64.936-24.619-92.776-56.299-137.256-9.474-11.584-21.792-20.502-35.9-25.732-3.23-13.051-4.746-27.834-4.746-42.971 0-45.158 13.498-87.164 36.679-122.203 26.855 20.879 61.194 32.914 98.343 32.914 1.921 0 3.835-0.032 5.741-0.096 15.722 0.007 24.042-7.673 39.402-6.393 13.678 2.205 25.941 5.884 37.46 10.944 21.42 6.976 33.58 13.376 55.98 20.096 16 4.8 25.6 4.8 40.96 10.88s6.72 0 16 10.56 9.28 24 19.2 46.4c15.36 30.080 13.44 34.24 5.44 37.44 3.732 9.721 5.893 20.966 5.893 32.716 0 3.241-0.164 6.444-0.486 9.601 0.033 12.403 3.873 21.363-9.567 31.603-19.419 17.145-41.253 32.343-64.729 44.868-5.651 1.191-10.102 1.361-14.593 1.361-24.030 0-46.921-4.878-67.737-13.698-3.981-3.411-5.261-6.611-1.101 4.589 17.813 15.536 37.463 30.096 58.227 43.037 5.227 0.94 9.082 0.835 12.961 0.835 13.524 0 26.751 1.269 39.57 3.695 2.523-0.207 34.843-39.887 54.683-26.127 6.506 3.828 11.454 9.708 14.009 16.737-6.96 8.611-15.595 15.404-25.393 20.182zM341.12 471.68c17.6 12.8 18.56 2.56 59.2 24.64 11.904-10.88 26.235-19.323 42.069-24.415 4.088-18.095 11.646-33.809 22.387-46.795-34.056-25.11-32.136-46.87-38.856-46.87-7.464 1.708-16.036 2.686-24.837 2.686-15.367 0-30.038-2.984-43.463-8.404-20.020 38.998-44.98 36.758-37.94 59.478s6.72 29.12 21.44 39.68zM844.8 569.28c-26.455-20.093-59.94-32.188-96.25-32.188-2.726 0-5.436 0.068-8.129 0.203-15.622-0.015-23.942 6.705-39.622 5.425-13.593-1.904-25.887-5.72-37.222-11.204-21.338-6.716-33.498-12.796-57.178-20.156-14.72-4.16-24.32-4.16-39.68-9.6s-6.72 0-16-11.84-9.28-23.68-20.48-46.080c-14.080-30.080-12.48-33.92-4.48-37.44-3.581-9.503-5.655-20.487-5.655-31.955 0-3.51 0.194-6.975 0.572-10.384-0.038-12.38-3.878-21.020 9.562-31.58 19.441-16.418 41.259-31.187 64.566-43.518 5.547-1.23 9.689-1.383 13.867-1.383 24.421 0 47.622 5.221 68.549 14.606 4.058 2.774 5.338 5.974 1.178-5.866-17.718-14.928-37.373-28.979-58.107-41.418-4.77-0.992-7.951-0.907-11.151-0.907-14.369 0-28.336-1.719-41.707-4.962-3.595 2.167-34.955 39.927-54.475 26.167-6.568-3.794-11.475-9.844-13.704-17.069 7.079-8.445 15.555-15.288 25.072-20.456 16.472-10.474 17.752-21.034 32.472-24.874 14.738-2.047 31.767-3.215 49.068-3.215 1.2 0 2.398 0.006 3.595 0.017 27.815 5.079 52.825 13.98 75.747 26.269 23.27 12.129-35.61-24.991-49.69-43.551-43.2-13.44-32-14.080-51.84-18.24s-17.92-3.2-32-7.36-24.64-21.76-11.84-32c7.68-6.4 32 2.56 54.72 3.2 23.962 6.842 44.667 15.233 64.224 25.513 19.184 12.277 37.365 25.776 54.407 40.554 18.969 13.293-22.631-37.907-40.231-59.347-5.12-7.040-7.36-8.32-13.76-17.28s2.88-34.24 9.6-32 12.8 18.56 21.44 23.68 16 19.2 26.88 32 13.76 12.8 21.44 22.4c9.519 12.959 19.253 27.901 28.171 43.373 7.673 9.173 13.571 16.596 18.807 24.495 32.381 64.612 24.381 92.452 56.381 137.892 9.679 10.973 21.953 19.435 35.873 24.449 2.96 12.46 4.306 26.571 4.306 40.996 0 46.392-13.924 89.533-37.822 125.469zM689.28 400.64c-7.68-26.56-7.040-29.76-21.44-39.68s-18.56-3.2-59.2-25.92c-11.767 11.479-26.121 20.364-42.101 25.695-4.255 17.671-11.906 32.94-22.651 45.479 34.031 25.787 32.111 47.867 38.831 47.227 7.063-1.557 15.176-2.45 23.497-2.45 15.892 0 31.024 3.254 44.765 9.132 21.017-39.963 45.337-37.723 38.297-59.483z" />
<glyph unicode="&#xe912;" glyph-name="IBT_Icons_Twitter" d="M800 615.040c-19.738-9.276-42.641-16.031-66.699-19.082 23.403 15.284 41.753 38.615 50.466 66.225-21.383-12.543-46.572-22.753-73.46-28.322-22.829 23.277-53.474 38.032-87.567 38.139-65.43-0.896-118.11-54.131-118.11-119.669 0-0.566 0.004-1.132 0.012-1.696 0.033-9.691 1.198-19.178 3.368-28.275-99.331 6.753-186.094 55.241-243.14 128.111-10.614-16.756-16.55-37.721-16.55-60.072 0-0.112 0-0.224 0-0.337-0.009-0.535-0.014-1.187-0.014-1.84 0-41.365 20.6-77.919 52.101-99.962-19.349 0.411-37.671 5.908-53.611 15.078l0.564-0.299c-0.002-0.262-0.003-0.572-0.003-0.883 0-57.842 40.815-106.151 95.216-117.697-8.316-2.788-18.772-4.312-29.585-4.312-0.573 0-1.144 0.004-1.715 0.013-2.476-0.205-5.461-0.321-8.473-0.321-5.219 0-10.356 0.349-15.389 1.025 15.545-48.187 59.040-82.784 110.824-84.221-39.535-32.289-90.715-51.844-146.462-51.844-0.089 0-0.179 0-0.268 0-0.009 0-0.036 0-0.063 0-9.671 0-19.206 0.581-28.572 1.711 52.109-34.186 114.806-54.495 182.245-54.511 217.284 0 336.324 184.64 336.324 344.64 0 5.12 0 10.56 0 15.68 23.107 17.393 42.554 38.163 57.99 61.791z" />
<glyph unicode="&#xe913;" glyph-name="IBT_Icons_Wheelchair" d="M704 800c0.381 0.007 0.829 0.011 1.279 0.011 40.471 0 73.28-32.809 73.28-73.28s-32.809-73.28-73.28-73.28c-40.355 0-73.091 32.62-73.279 72.931-0.001 0.116-0.001 0.233-0.001 0.349 0 40.022 32.083 72.55 71.934 73.268zM448 64c-123.28 0.569-222.998 100.638-222.998 223.998 0 51.955 17.688 99.779 47.371 137.778l56.587-57.775c-15.671-22.339-25.105-50.051-25.28-79.957 0.234-79.218 64.472-143.311 143.679-143.311 29.967 0 57.792 9.174 80.818 24.868l56.463-57.6c-37.24-29.533-84.793-47.538-136.536-47.999zM780.16 206.080c-1.878-22.651-20.725-40.322-43.699-40.322-0.162 0-0.324 0.001-0.486 0.003h-3.495c-22.707 1.816-40.447 20.691-40.447 43.708 0 1.172 0.046 2.334 0.136 3.484l14.39 175.848-58.88-3.2c14.289-28.663 22.652-62.434 22.652-98.159 0-59.393-23.115-113.387-60.84-153.476l-55.573 58.035c19.539 24.329 31.36 55.584 31.36 89.6 0 79.352-64.328 143.68-143.68 143.68-34.016 0-65.271-11.821-89.881-31.578l-57.319 56.538c31.242 29.486 71.13 50.126 115.472 57.732l109.808 123.388-61.44 35.52-74.24-66.24c-8.101-10.151-20.472-16.598-34.348-16.598-24.212 0-43.84 19.628-43.84 43.84 0 15.328 7.867 28.819 19.783 36.656l98.085 87.462c7.707 6.877 17.929 11.079 29.132 11.079 8.131 0 15.745-2.213 22.272-6.071l200.116-115.088c9.71-6.223 16.756-15.878 19.459-27.217 1.336-4.542 2.070-9.415 2.070-14.458 0-13.019-4.889-24.895-12.932-33.894l-83.797-95.951 152.64 9.6c0.6 0.029 1.304 0.045 2.011 0.045 12.351 0 23.526-5.034 31.586-13.162 8.556-7.815 13.901-19.016 13.901-31.464 0-1.203-0.050-2.395-0.148-3.573z" />
<glyph unicode="&#xe914;" glyph-name="social_facebook" d="M1016.002 0.069c0-30.969-25.102-56.099-56.071-56.099h-258.906v393.465h132.068l19.788 153.323h-151.856v97.917c0 44.392 12.343 74.641 75.997 74.641l81.2 0.028v137.161c-14.059 1.854-62.243 6.033-118.314 6.033-117.068 0-197.217-71.459-197.217-202.697v-113.083h-132.4v-153.323h132.4v-393.465h-486.621c-30.969 0-56.071 25.13-56.071 56.099v903.832c0 30.997 25.102 56.099 56.071 56.099h903.86c30.969 0 56.071-25.102 56.071-56.099v-903.832z" />
<glyph unicode="&#xe915;" glyph-name="social_twitter" horiz-adv-x="1216" d="M1165.44 941.536c-47.552-28.864-100.096-49.856-156.256-61.088-44.736 48.96-108.672 79.552-179.456 79.552-135.68 0-245.792-112.896-245.792-252.128 0-19.776 2.112-38.944 6.336-57.408-204.352 10.528-385.504 110.784-506.848 263.52-21.184-37.376-33.28-80.736-33.28-126.912 0-87.424 43.392-164.608 109.408-209.824-40.256 1.216-78.24 12.672-111.456 31.424v-3.072c0-122.208 84.768-224.16 197.344-247.232-20.608-5.92-42.368-8.896-64.8-8.896-15.84 0-31.296 1.536-46.272 4.48 31.296-100.128 122.048-173.056 229.664-175.008-84.128-67.648-190.208-107.968-305.376-107.968-19.84 0-39.456 1.152-58.656 3.456 108.8-71.424 238.112-113.184 376.928-113.184 452.32 0 699.584 384.128 699.584 717.344 0 10.976-0.192 21.92-0.608 32.672 48.032 35.552 89.76 79.936 122.592 130.496-44.032-20.032-91.456-33.6-141.184-39.68 50.784 31.168 89.76 80.576 108.128 139.456z" />
<glyph unicode="&#xe916;" glyph-name="Flickr" d="M1024 429.65c0-123.251-100.853-223.209-225.488-223.209-124.756 0-225.669 99.959-225.669 223.209 0 123.191 100.913 223.15 225.669 223.15 124.636 0 225.488-99.959 225.488-223.15zM451.097 429.65c0-123.251-100.913-223.209-225.669-223.209-124.576 0-225.428 99.959-225.428 223.209 0 123.191 100.853 223.15 225.428 223.15 124.756 0 225.669-99.959 225.669-223.15z" />
<glyph unicode="&#xe917;" glyph-name="Menu" d="M0 960h1024v-102.4h-1024v102.4zM0 499.2h1024v-102.4h-1024v102.4zM0 38.4h1024v-102.4h-1024v102.4z" />
<glyph unicode="&#xe918;" glyph-name="Pin" horiz-adv-x="717" d="M358.4 448c-84.864 0-153.6 68.736-153.6 153.6s68.736 153.6 153.6 153.6c84.864 0 153.6-68.736 153.6-153.6s-68.736-153.6-153.6-153.6v0zM358.4 960c-197.888 0-358.4-160.512-358.4-358.4 0-332.8 358.4-665.6 358.4-665.6s358.4 332.8 358.4 665.6c0 197.888-160.512 358.4-358.4 358.4v0z" />
<glyph unicode="&#xe919;" glyph-name="circle-bullet" d="M742.4 448c0-127.246-103.154-230.4-230.4-230.4s-230.4 103.154-230.4 230.4c0 127.246 103.154 230.4 230.4 230.4s230.4-103.154 230.4-230.4z" />
<glyph unicode="&#xe91a;" glyph-name="square-bullet" d="M137.6 822.4h748.8v-748.8h-748.8v748.8z" />
<glyph unicode="&#xe91b;" glyph-name="dog" d="M784.64 128v0h-28.16v207.36c16.64 10.24 28.16 28.16 28.16 48.64 0 38.4-16.64 107.52-16.64 107.52l-98.56 98.56v-259.84c0-21.76 1.28-42.24 3.84-64l24.32-195.84h112.64v28.16c2.56 16.64-10.24 29.44-25.6 29.44zM460.8 800c-32 32-84.48 32-116.48 0l-39.68-39.68c-15.36-15.36-24.32-35.84-24.32-58.88s8.96-42.24 24.32-58.88l112.64-112.64 39.68 33.28-116.48 116.48c-6.4 6.4-8.96 14.080-8.96 21.76 0 8.96 3.84 16.64 8.96 21.76l39.68 39.68c12.8 12.8 32 12.8 44.8 0v0l124.16-124.16-92.16-76.8 163.84-162.56v241.92l-66.56 66.56-93.44 92.16zM912.64 761.6l-10.24 24.32c-6.4 15.36-21.76 25.6-38.4 25.6h-52.48c-37.12 0-72.96-12.8-101.12-35.84l-84.48-69.12 131.84-131.84 93.44 66.56h74.24c47.36 0 85.76 17.92 85.76 56.32v28.16l-70.4 11.52c-11.52 2.56-23.040 11.52-28.16 24.32zM642.56 99.84v-28.16h-170.24c0 0 0 0 0 0s0 0 0 0h-199.68c-12.8 1.28-26.88 5.12-38.4 10.24-17.92-6.4-38.4-10.24-58.88-10.24-90.88 0-165.12 74.24-165.12 163.84 0 10.24 1.28 19.2 2.56 28.16 14.080-76.8 80.64-135.68 162.56-135.68 1.28 0 2.56 0 3.84 0-10.24 16.64-17.92 35.84-20.48 56.32 0 0 0 29.44 0 29.44 0 5.12 1.28 8.96 2.56 14.080 11.52 75.52 52.48 140.8 110.080 184.32v0l143.36 117.76 202.24-202.24v-42.24l-175.36-43.52h28.16c0 0 0 0 0 0 47.36 0 85.76-38.4 85.76-85.76v-28.16h58.88c15.36 0 28.16-12.8 28.16-28.16z" />
</font>
</defs>
</svg>
